<?xml version="1.0" encoding="UTF-8" standalone="no"?>
<!-- Creator: CorelDRAW X6 -->

<svg
   xmlns:dc="http://purl.org/dc/elements/1.1/"
   xmlns:cc="http://creativecommons.org/ns#"
   xmlns:rdf="http://www.w3.org/1999/02/22-rdf-syntax-ns#"
   xmlns:svg="http://www.w3.org/2000/svg"
   xmlns="http://www.w3.org/2000/svg"
   xmlns:sodipodi="http://sodipodi.sourceforge.net/DTD/sodipodi-0.dtd"
   xmlns:inkscape="http://www.inkscape.org/namespaces/inkscape"
   xml:space="preserve"
   width="3.29166in"
   height="0.666661in"
   version="1.1"
   style="shape-rendering:geometricPrecision; text-rendering:geometricPrecision; image-rendering:optimizeQuality; fill-rule:evenodd; clip-rule:evenodd"
   viewBox="0 0 3292 667"
   id="svg309"
   sodipodi:docname="Office-Flooring-Worx-Logo.svg"
   inkscape:version="0.92.3 (2405546, 2018-03-11)"><metadata
   id="metadata313"><rdf:RDF><cc:Work
       rdf:about=""><dc:format>image/svg+xml</dc:format><dc:type
         rdf:resource="http://purl.org/dc/dcmitype/StillImage" /></cc:Work></rdf:RDF></metadata><sodipodi:namedview
   pagecolor="#ffffff"
   bordercolor="#666666"
   borderopacity="1"
   objecttolerance="10"
   gridtolerance="10"
   guidetolerance="10"
   inkscape:pageopacity="0"
   inkscape:pageshadow="2"
   inkscape:window-width="1764"
   inkscape:window-height="866"
   id="namedview311"
   showgrid="false"
   inkscape:zoom="7.2658373"
   inkscape:cx="85.631906"
   inkscape:cy="36.340495"
   inkscape:window-x="37"
   inkscape:window-y="12"
   inkscape:window-maximized="0"
   inkscape:current-layer="svg309" />
 <defs
   id="defs113">
  <font
   id="FontID0"
   horiz-adv-x="666"
   font-variant="normal"
   style="fill-rule:nonzero"
   font-weight="400">
	<font-face
   font-family="Arial"
   id="font-face2">
	</font-face>
   <missing-glyph
   id="missing-glyph6"><path
     d="M0 0z"
     id="path4" /></missing-glyph>
   <glyph
   unicode="f"
   horiz-adv-x="277"
   id="glyph10"><path
     d="M86.9889 0l0 450.996 -77.9888 0 0 67.9966 77.9888 0 0 54.9926c0,34.831 3.01183,60.6973 9.17724,77.5282 8.504,22.6419 23.1734,41.1381 44.5043,55.3115 21.1537,14.1733 50.9886,21.1891 89.3275,21.1891 24.8388,0 52.1579,-3.01183 82.1699,-8.85834l-13.1812 -76.9967c-18.319,3.189 -35.5042,4.85437 -51.8036,4.85437 -26.6813,0 -45.5319,-5.66934 -56.6934,-17.008 -10.9843,-11.3387 -16.4765,-32.4924 -16.4765,-63.4966l0 -47.5161 100.985 0 0 -67.9966 -99.9929 0 0 -450.996 -88.0164 0z"
     id="path8" /></glyph>
   <glyph
   unicode="t"
   horiz-adv-x="277"
   id="glyph14"><path
     d="M256.998 78.4849l12.0119 -77.6345c-24.6616,-5.17327 -46.8429,-7.8662 -66.1895,-7.8662 -31.8191,0 -56.4808,5.03154 -74.162,15.1655 -17.5041,10.1694 -29.8349,23.3506 -36.9924,39.8625 -7.15754,16.4765 -10.6654,51.1658 -10.6654,103.997l0 298.987 -64.9848 0 0 67.9966 64.9848 0 0 128.34 88.0164 52.8311 0 -181.171 87.981 0 0 -67.9966 -87.981 0 0 -303.983c0,-25.1931 1.4882,-41.3507 4.64177,-48.5083 3.01183,-7.15754 8.00794,-12.8269 15.0237,-17.1852 6.98037,-4.1457 16.9726,-6.30714 29.9766,-6.30714 9.6733,0 22.5002,1.1693 38.3389,3.47247z"
     id="path12" /></glyph>
   <glyph
   unicode="c"
   horiz-adv-x="499"
   id="glyph18"><path
     d="M405.003 189.994l85.9967 -11.9765c-9.49614,-59.1737 -33.4845,-105.343 -72.3195,-138.863 -38.835,-33.4845 -86.67,-50.1382 -143.186,-50.1382 -70.8313,0 -127.844,23.138 -170.824,69.4848 -43.1578,46.3468 -64.6659,112.678 -64.6659,198.994 0,56.0201 9.31897,104.847 27.8152,146.836 18.4962,41.8468 46.6657,73.347 84.6857,94.1818 37.8428,20.9765 78.9809,31.5002 123.662,31.5002 56.1619,0 102.332,-14.1733 138.013,-42.6618 35.8231,-28.5238 58.8194,-69.0242 68.8116,-121.359l-85.0046 -13.004c-8.14967,34.831 -22.5002,61.0162 -43.335,78.662 -20.6576,17.5041 -45.6382,26.3624 -74.977,26.3624 -44.3271,0 -80.3274,-15.8387 -108.178,-47.5161 -27.6734,-31.8191 -41.4925,-81.8156 -41.4925,-150.485 0,-69.662 13.3229,-120.19 40.0043,-151.69 26.823,-31.5002 61.654,-47.3035 104.493,-47.3035 34.6538,0 63.4966,10.4883 86.4928,31.642 23.1734,21.012 37.8428,53.5044 44.0082,97.3354z"
     id="path16" /></glyph>
   <glyph
   unicode="A"
   horiz-adv-x="666"
   id="glyph22"><path
     d="M-1.4882 0l274.644 716.002 104.174 0 291.51 -716.002 -107.824 0 -82.8432 216.994 -301.502 0 -77.6699 -216.994 -100.489 0zm205.974 293.991l244.029 0 -74.6935 198.498c-22.5002,60.343 -39.4728,110.162 -51.3075,149.529 -9.85047,-46.7012 -23.0317,-92.5165 -39.5082,-137.836l-78.5203 -210.191z"
     id="path20" /></glyph>
   <glyph
   unicode="O"
   horiz-adv-x="777"
   id="glyph26"><path
     d="M48 348.504c0,118.677 32,211.654 95.8425,278.835 63.811,67.1496 146.173,100.661 247.15,100.661 66.1732,0 125.669,-15.8425 178.835,-47.3386 53.0079,-31.4961 93.5118,-75.4961 121.354,-132 27.811,-56.315 41.8268,-120.315 41.8268,-191.843 0,-72.4724 -14.6772,-137.48 -44,-194.646 -29.3543,-57.3543 -70.8346,-100.661 -124.504,-130.016 -53.8268,-29.4803 -111.843,-44.1575 -174.016,-44.1575 -67.4961,0 -127.654,16.3465 -180.819,48.8189 -53.0079,32.5039 -93.3228,76.8504 -120.661,133.197 -27.3386,56.1575 -41.0079,115.654 -41.0079,178.488zm98.0157 -1.66929c0,-86.1732 23.1496,-154.016 69.4803,-203.496 46.3307,-49.5118 104.504,-74.3307 174.52,-74.3307 71.3071,0 129.827,25.0079 176,74.9921 45.9843,50.0157 68.9764,121.008 68.9764,213.008 0,58.1732 -9.82677,109.008 -29.4803,152.315 -19.685,43.3386 -48.5039,77.0079 -86.3307,100.85 -38.0157,23.8425 -80.5039,35.8425 -127.685,35.8425 -66.9921,0 -124.661,-23.0236 -173.008,-69.0079 -48.315,-46.0157 -72.4724,-122.677 -72.4724,-230.173z"
     id="path24" /></glyph>
   <glyph
   unicode="n"
   horiz-adv-x="556"
   id="glyph30"><path
     d="M66.0157 0l0 518.992 78.9921 0 0 -73.6693c37.9843,56.5039 93.0079,84.6929 164.819,84.6929 31.3386,0 60,-5.66929 86.1732,-16.8504 26.1732,-11.1496 45.8268,-25.9843 58.8346,-44.1575 13.0079,-18.1732 22.1732,-39.8425 27.3386,-64.8504 3.14961,-16.315 4.8189,-44.8189 4.8189,-85.4803l0 -318.677 -88 0 0 315.339c0,35.8425 -3.33858,62.6772 -10.1732,80.315 -6.80315,17.6693 -18.9921,31.8425 -36.315,42.5197 -17.3228,10.4882 -37.8268,15.8425 -61.1654,15.8425 -37.3228,0 -69.5118,-11.8425 -96.6614,-35.685 -27.1811,-23.6535 -40.6614,-68.8189 -40.6614,-135.15l0 -283.181 -88 0z"
     id="path28" /></glyph>
   <glyph
   unicode="k"
   horiz-adv-x="499"
   id="glyph34"><path
     d="M66.3312 0l0 716.002 88.0164 0 0 -407.838 207.994 210.828 113.67 0 -198.002 -192.828 217.986 -326.164 -108.32 0 -172.348 265.183 -60.9808 -59.3509 0 -205.832 -88.0164 0z"
     id="path32" /></glyph>
   <glyph
   unicode="F"
   horiz-adv-x="610"
   id="glyph38"><path
     d="M82.0157 0l0 716 482.992 0 0 -84 -388 0 0 -222.992 336 0 0 -84 -336 0 0 -325.008 -94.9921 0z"
     id="path36" /></glyph>
   <glyph
   unicode="h"
   horiz-adv-x="556"
   id="glyph42"><path
     d="M66.0123 0l0 716.002 87.981 0 0 -257.671c40.8547,47.835 92.3393,71.6817 154.667,71.6817 38.1617,0 71.3273,-7.51187 99.674,-22.6773 28.1695,-15.1655 48.3311,-36.0003 60.4847,-62.6816 12.1891,-26.6459 18.1773,-65.4808 18.1773,-116.151l0 -328.503 -87.981 0 0 328.184c0,43.8311 -9.53157,75.8274 -28.3467,95.8118 -18.9923,20.0198 -45.6736,30.012 -80.3274,30.012 -25.8309,0 -50.1736,-6.66147 -72.9927,-20.1616 -22.8545,-13.5001 -39.0121,-31.8546 -48.8626,-55.028 -9.63787,-22.9962 -14.4922,-54.8154 -14.4922,-95.4929l0 -283.325 -87.981 0z"
     id="path40" /></glyph>
   <glyph
   unicode="W"
   horiz-adv-x="943"
   id="glyph46"><path
     d="M200.517 0l-188.505 716.002 98.3275 0 107.328 -469.492c11.6576,-49.1815 22.0041,-98.0086 30.827,-146.34 18.8505,76.3234 29.8349,120.332 32.9884,131.989l135.355 483.842 114.166 0 102.65 -362.519c25.1931,-90.0007 43.8311,-174.474 55.843,-253.313 9.49614,45.1775 21.6852,96.9811 36.4964,155.482l111.828 460.35 95.174 0 -195.982 -716.002 -92.1976 0 -150.167 545.496c-12.6497,45.6736 -20.3033,73.6659 -23.138,84.0125 -8.1851,-32.6695 -15.5198,-60.6619 -21.8624,-83.8353l-150.167 -545.674 -98.9653 0z"
     id="path44" /></glyph>
   <glyph
   unicode="v"
   horiz-adv-x="500"
   id="glyph50"><path
     d="M207.843 0l-195.843 518.992 94.1732 0 110.992 -310.835c12,-33.4803 23.1811,-68.315 33.3228,-104.504 7.84252,27.3386 18.6772,60.189 32.8504,98.6772l115.339 316.661 90.3307 0 -196.504 -518.992 -84.6614 0z"
     id="path48" /></glyph>
   <glyph
   unicode="C"
   horiz-adv-x="722"
   id="glyph54"><path
     d="M586.992 251.181l95.0236 -24c-19.8425,-77.8583 -55.5276,-137.008 -107.024,-177.858 -51.4961,-40.8189 -114.488,-61.3228 -188.976,-61.3228 -77.0079,0 -139.685,15.6535 -188,47.1811 -48.3465,31.3071 -85.0079,76.8189 -110.173,136.315 -25.1654,59.685 -37.8268,123.496 -37.8268,191.843 0,74.4882 14.1417,139.496 42.6457,194.992 28.5039,55.4961 69.0079,97.6693 121.512,126.488 52.5039,28.8504 110.331,43.1811 173.323,43.1811 71.685,0 131.843,-18.1732 180.504,-54.6772 48.8189,-36.5039 82.8346,-87.6535 102.016,-153.669l-93.0079 -21.9843c-16.5039,52 -40.6614,89.9843 -72.189,113.669 -31.4961,23.8425 -71.1496,35.6535 -118.992,35.6535 -54.8346,0 -100.819,-13.1654 -137.669,-39.4961 -36.8189,-26.3307 -62.8346,-61.8268 -77.6693,-106.173 -14.9921,-44.5039 -22.4882,-90.3307 -22.4882,-137.48 0,-60.8504 8.8189,-114.016 26.4882,-159.339 17.6693,-45.5118 45.1654,-79.3386 82.5197,-101.827 37.3228,-22.5197 77.6693,-33.6693 121.165,-33.6693 53.0079,0 97.6693,15.3386 134.331,45.8268 36.6614,30.6772 61.5118,76 74.4882,136.346z"
     id="path52" /></glyph>
   <glyph
   unicode="e"
   horiz-adv-x="556"
   id="glyph58"><path
     d="M419.991 167.99l90.9928 -11.9765c-14.1379,-52.8311 -40.6421,-94.0047 -79.3353,-123.166 -38.6578,-29.1971 -87.981,-43.8311 -148.147,-43.8311 -75.6856,0 -135.674,23.3151 -180.001,69.9809 -44.3271,46.4886 -66.5084,112.005 -66.5084,196.159 0,87.0243 22.3584,154.667 67.1816,202.679 44.8232,48.1539 103.005,72.1777 174.509,72.1777 69.1659,0 125.647,-23.5277 169.478,-70.6895 43.8311,-47.1618 65.8352,-113.493 65.8352,-198.994 0,-5.17327 -0.177167,-13.004 -0.496067,-23.3151l-386.507 0c3.33073,-56.8351 19.3466,-100.524 48.3311,-130.678 28.8427,-30.1538 65.0202,-45.3193 108.178,-45.3193 32.1735,0 59.6698,8.46857 82.3471,25.4766 22.8191,17.008 40.8192,44.1854 54.1422,81.4967zm-288.002 141.025l288.994 0c-3.8268,43.6539 -14.9883,76.3234 -33.1656,98.1504 -27.8152,33.8388 -64.1344,50.8469 -108.639,50.8469 -40.3586,0 -74.162,-13.5001 -101.694,-40.5003 -27.3191,-27.0002 -42.4846,-63.1777 -45.4964,-108.497z"
     id="path56" /></glyph>
   <glyph
   unicode="p"
   horiz-adv-x="556"
   id="glyph62"><path
     d="M66.0123 -198.994l0 717.986 79.9731 0 0 -68.1738c18.8505,26.3624 40.1814,46.1697 64.0281,59.3509 23.6695,13.1812 52.4768,19.8427 86.3156,19.8427 44.3271,0 83.3392,-11.3387 117.178,-34.1932 33.8388,-22.6419 59.3154,-54.8154 76.6423,-96.1661 17.1852,-41.4925 25.8663,-86.8117 25.8663,-136.312 0,-52.8311 -9.53157,-100.524 -28.5238,-143.009 -18.9923,-42.3429 -46.6657,-74.8352 -82.9849,-97.5126 -36.1775,-22.5002 -74.3392,-33.8034 -114.343,-33.8034 -29.3388,0 -55.6658,6.1654 -78.8392,18.4962 -23.3151,12.3308 -42.3074,27.8152 -57.3312,46.6657l0 -253.171 -87.981 0zm79.9731 455.319c0,-66.5084 13.5001,-115.654 40.3586,-147.509 27.0002,-31.8191 59.6698,-47.7996 97.9732,-47.7996 39.0121,0 72.3549,16.4765 100.028,49.5004 27.8152,32.9884 41.6696,83.977 41.6696,153.143 0,66.0123 -13.5001,115.336 -40.6775,148.182 -27.1774,32.8113 -59.4926,49.1461 -97.1582,49.1461 -37.3468,0 -70.3352,-17.5041 -99.0008,-52.3351 -28.8427,-34.9727 -43.1933,-85.6424 -43.1933,-152.328z"
     id="path60" /></glyph>
   <glyph
   unicode="m"
   horiz-adv-x="833"
   id="glyph66"><path
     d="M66.0157 0l0 518.992 78.9921 0 0 -73.3228c16.1575,25.3228 37.8268,45.8268 64.8189,61.1654 26.9921,15.4961 57.6693,23.1811 92.189,23.1811 38.3307,0 69.8268,-8 94.3307,-23.8425 24.4724,-16 41.8268,-38.1732 51.811,-66.8346 41.3543,60.5039 94.8346,90.6772 160.85,90.6772 51.6535,0 91.4961,-14.1732 119.15,-42.6772 27.8425,-28.5039 41.8583,-72.3465 41.8583,-131.496l0 -355.843 -88 0 0 326.677c0,34.9921 -3.02362,60.315 -8.69291,75.811 -5.66929,15.5276 -16,27.8425 -31.1496,37.3543 -14.9921,9.48031 -32.6614,14.1732 -52.8504,14.1732 -36.6614,0 -66.9921,-12.189 -91.1496,-36.3465 -24.1575,-24.3465 -36.1575,-63.1811 -36.1575,-116.504l0 -301.165 -88 0 0 336.819c0,39.0236 -7.1811,68.3465 -21.5118,87.8425 -14.3307,19.4961 -37.8268,29.3543 -70.3307,29.3543 -24.6614,0 -47.4961,-6.51969 -68.5039,-19.5276 -21.0079,-12.9764 -36.1575,-32 -45.6693,-57.1654 -9.32283,-24.9764 -13.9843,-61.1654 -13.9843,-108.315l0 -269.008 -88 0z"
     id="path64" /></glyph>
   <glyph
   unicode="&amp;"
   horiz-adv-x="666"
   id="glyph70"><path
     d="M475.654 85.0079c-28.9764,-32 -60.6614,-56 -94.8346,-72 -34.1417,-16 -71.1496,-24 -110.992,-24 -73.3228,0 -131.496,24.6614 -174.488,73.9843 -34.8346,40.3465 -52.3465,85.1654 -52.3465,134.835 0,44.189 14.1732,84 42.6772,119.496 28.5039,35.685 71.1496,66.8346 127.654,93.8583 -32.5039,36.9764 -54.1417,67.1496 -64.9764,90.3307 -10.8346,22.9921 -16.3465,45.3228 -16.3465,66.8346 0,42.9921 16.8189,80.315 50.6772,112 33.6693,31.811 76.1575,47.6535 127.496,47.6535 48.8189,0 89.0079,-14.9921 120.157,-45.0079 31.1811,-29.9843 46.6772,-66.1732 46.6772,-108.157 0,-68.1575 -45.3543,-126.488 -136.189,-174.677l129.669 -162.646c14.8346,28.6614 26.3307,61.8268 34.5197,99.6535l90.9921 -19.6535c-15.6535,-62.3307 -36.8189,-113.354 -63.6535,-153.165 32.8189,-43.5276 70.1417,-80 111.654,-109.669l-58.9921 -69.6693c-35.3386,22.4882 -71.685,56 -109.354,100zm-180 371.811c38.3622,22.6772 63.0236,42.3622 74.3622,59.3386 11.3071,17.0079 16.9764,35.8425 16.9764,56.5039 0,24.5039 -7.81102,44.5039 -23.3386,60 -15.4961,15.4961 -34.9921,23.3386 -58.1417,23.3386 -23.8425,0 -43.8425,-7.65354 -59.685,-22.9921 -15.811,-15.3386 -23.811,-34.1732 -23.811,-56.5039 0,-10.9921 2.80315,-22.8346 8.66142,-34.9921 5.66929,-12.3465 14.1417,-25.3543 25.6693,-39.0236l39.3071 -45.6693zm124 -303.15l-160.315 200.157c-47.685,-28.1575 -79.8425,-54.3307 -96.3465,-78.4882 -16.6614,-24.1575 -24.9764,-48 -24.9764,-71.685 0,-28.8189 11.4961,-58.8346 34.6457,-89.9843 22.9921,-31.1811 55.685,-46.6772 97.8268,-46.6772 26.3307,0 53.6693,8 81.6693,24.189 28.189,16.1575 50.6772,36.9764 67.4961,62.4882z"
     id="path68" /></glyph>
   <glyph
   unicode="Y"
   horiz-adv-x="666"
   id="glyph74"><path
     d="M278.825 0l0 303.345 -275.99 412.657 113.989 0 141.521 -216.675c26.327,-40.146 50.8114,-80.3274 73.1699,-120.509 21.8269,37.5239 48.3311,79.5124 79.1581,126.178l138.651 211.006 110.517 0 -286.018 -412.657 0 -303.345 -94.9968 0z"
     id="path72" /></glyph>
   <glyph
   unicode="g"
   horiz-adv-x="556"
   id="glyph78"><path
     d="M49.8268 -42.9921l85.0079 -12c3.49606,-26.3307 13.5118,-45.5118 29.8268,-57.6693 21.8268,-16.1575 51.685,-24.3465 89.5118,-24.3465 40.6614,0 72.1575,8.18898 94.3307,24.3465 22.1732,16.1575 37.1654,38.9921 45.0079,68.1575 4.50394,17.8268 6.64567,55.3386 6.33071,112.504 -38.5197,-45.3228 -86.3307,-68 -143.685,-68 -71.3386,0 -126.646,25.6693 -165.669,77.1654 -39.1496,51.3386 -58.6457,113.008 -58.6457,184.85 0,49.4803 8.97638,95.1496 26.8346,136.976 17.8268,41.8268 43.811,74.0157 77.8268,96.8504 33.9843,22.8346 73.9843,34.1732 120,34.1732 61.1654,0 111.654,-25.0079 151.339,-75.0236l0 64 80.9764 0 0 -448.157c0,-80.8504 -8.15748,-138.016 -24.6614,-171.654 -16.315,-33.6693 -42.4882,-60.3465 -77.9843,-79.8425 -35.685,-19.4961 -79.4961,-29.3543 -131.496,-29.3543 -61.8583,0 -111.685,13.8583 -149.669,41.6693 -38.1732,27.685 -56.5039,69.5118 -55.1811,125.354zm72 311.339c0,-67.8425 13.5118,-117.354 40.5039,-148.504 27.1811,-31.1811 61.0079,-46.8346 101.669,-46.8346 40.5039,0 74.3307,15.4961 101.827,46.4882 27.3386,30.9921 41.0079,79.685 41.0079,146.016 0,63.3071 -14.1732,111.15 -42.3307,143.307 -28.1575,32.189 -62.1732,48.189 -101.827,48.189 -39.1811,0 -72.3465,-15.8425 -99.8425,-47.4961 -27.3386,-31.685 -41.0079,-78.6772 -41.0079,-141.165z"
     id="path76" /></glyph>
   <glyph
   unicode="x"
   horiz-adv-x="499"
   id="glyph82"><path
     d="M5.98824 0l189.498 268.833 -175.501 250.159 108.178 0 81.9928 -122.493c15.1655,-22.9962 27.1774,-41.6696 35.6814,-56.339 14.8466,20.8348 27.9923,39.6854 39.8271,56.5162l86.3511 122.316 107.469 0 -176.494 -250.159 188.009 -268.833 -107.009 0 -107.328 160.017 -24.4844 38.4806 -138.686 -198.498 -107.505 0z"
     id="path80" /></glyph>
   <glyph
   unicode="u"
   horiz-adv-x="556"
   id="glyph86"><path
     d="M405.003 0l0 77.1738c-40.3232,-58.8548 -94.9968,-88.1582 -164.163,-88.1582 -30.5081,0 -58.9965,5.81107 -85.5007,17.4686 -26.5041,11.8347 -46.1697,26.5041 -58.9965,44.1854 -12.8269,17.823 -21.8269,39.5082 -27.0002,65.1619 -3.5079,17.3269 -5.35044,44.6815 -5.35044,81.9928l0 321.168 88.0164 0 0 -287.152c0,-45.8508 1.8071,-76.8549 5.315,-92.6582 5.49217,-23.1734 17.1852,-41.1736 35.1853,-54.3548 17.823,-13.1458 39.8271,-19.8427 66.1541,-19.8427 26.327,0 50.9886,6.6969 74.0203,20.197 22.9962,13.5001 39.331,31.9963 48.9689,55.1343 9.53157,23.1734 14.3505,57.0123 14.3505,101.198l0 277.479 87.981 0 0 -518.992 -78.9809 0z"
     id="path84" /></glyph>
   <glyph
   unicode=" "
   horiz-adv-x="277"
   id="glyph88" />
   <glyph
   unicode="a"
   horiz-adv-x="556"
   id="glyph92"><path
     d="M405.003 64.9848c-32.6695,-27.8152 -64.1698,-47.3035 -94.3236,-58.8194 -30.1892,-11.5158 -62.5044,-17.1497 -97.1937,-17.1497 -56.9768,0 -100.808,13.819 -131.493,41.6342 -30.6498,27.6734 -45.9925,63.1777 -45.9925,106.335 0,25.3348 5.8465,48.5083 17.3269,69.5202 11.6576,21.012 26.823,37.6657 45.4964,50.3154 18.8505,12.6851 39.8271,22.3584 63.3548,28.8427 17.3269,4.50004 43.4767,8.8229 78.3077,13.1812 71.0084,8.32684 123.521,18.4962 157.005,30.1538 0.354333,12.0119 0.496067,19.6655 0.496067,22.8191 0,35.6814 -8.32684,60.8391 -24.9805,75.5085 -22.5002,19.8427 -56.0201,29.6577 -100.347,29.6577 -41.4925,0 -72.1423,-7.3347 -91.8432,-21.8269 -19.8072,-14.4922 -34.2995,-40.146 -43.8311,-77.1738l-85.9967 12.0119c7.83077,36.8507 20.6931,66.6856 38.6932,89.3275 18.0001,22.6773 43.9728,40.0043 77.9888,52.3351 33.8388,12.1891 73.347,18.3545 117.993,18.3545 44.3271,0 80.5046,-5.17327 108.32,-15.6615 27.6734,-10.5237 48.1894,-23.5277 61.1934,-39.3665 13.004,-15.8033 22.1458,-35.8231 27.4963,-59.9887 2.83467,-14.9883 4.32287,-41.9885 4.32287,-80.8235l0 -116.682c0,-81.4967 1.84253,-132.981 5.49217,-154.808 3.5079,-21.8624 10.8426,-42.6972 21.508,-62.6816l-91.985 0c-8.85834,18.4962 -14.5277,40.1814 -17.008,64.9848zm-7.0158 195.025c-31.9963,-13.004 -79.9731,-24.0238 -144.001,-33.0239 -36.3192,-5.13784 -61.9729,-10.9843 -76.9967,-17.4686 -14.9883,-6.51974 -26.5041,-16.0159 -34.6538,-28.3467 -8.1851,-12.508 -12.3308,-26.327 -12.3308,-41.6696 0,-23.1734 8.8229,-42.6618 26.6459,-58.1816 17.8584,-15.4844 43.8665,-23.3151 78.0242,-23.3151 33.8388,0 63.9926,7.3347 90.4968,22.1458 26.327,14.6694 45.8153,34.8664 58.1461,60.343 9.53157,19.8427 14.1733,49.0043 14.1733,87.5204l0.496067 31.9963z"
     id="path90" /></glyph>
   <glyph
   unicode="r"
   horiz-adv-x="333"
   id="glyph96"><path
     d="M64.9848 0l0 518.992 79.0164 0 0 -79.477c20.1616,36.8153 38.835,61.158 55.9847,72.8155 17.1852,11.8347 36.0003,17.6812 56.5162,17.6812 29.6577,0 59.8469,-9.3544 90.4968,-27.8506l-31.3231 -81.1778c-21.3309,12.0119 -42.6618,18.0001 -63.9926,18.0001 -19.1694,0 -36.3546,-5.81107 -51.5201,-17.3269 -15.1655,-11.4804 -26.0081,-27.4963 -32.4924,-47.9768 -9.85047,-31.1813 -14.6694,-65.3391 -14.6694,-102.509l0 -271.171 -88.0164 0z"
     id="path94" /></glyph>
   <glyph
   unicode="o"
   horiz-adv-x="556"
   id="glyph100"><path
     d="M32.9884 259.514c0,95.8118 26.6813,166.82 80.1857,212.99 44.5043,38.3389 99.0008,57.5083 163.171,57.5083 71.1502,0 129.473,-23.3506 174.828,-70.0163 45.1775,-46.4886 67.8194,-111.013 67.8194,-193.147 0,-66.6856 -9.9922,-119.021 -29.9766,-157.182 -20.0198,-38.1617 -49.1815,-67.8194 -87.5204,-89.0086 -38.1617,-21.1537 -80.0085,-31.642 -125.151,-31.642 -72.6738,0 -131.351,23.138 -176.175,69.662 -44.8232,46.4886 -67.1816,113.493 -67.1816,200.836zm90.0007 -0.177167c0,-66.3312 14.5277,-116.009 43.5122,-148.82 29.1616,-33.0239 65.658,-49.5004 109.843,-49.5004 43.6539,0 79.9731,16.4765 109.17,49.6421 28.9845,33.1656 43.4767,83.6581 43.4767,151.513 0,63.9926 -14.6694,112.501 -43.8311,145.312 -29.1616,33.0239 -65.4808,49.5004 -108.816,49.5004 -44.1854,0 -80.6817,-16.3348 -109.843,-49.1461 -28.9845,-32.8467 -43.5122,-82.3471 -43.5122,-148.501z"
     id="path98" /></glyph>
   <glyph
   unicode="l"
   horiz-adv-x="222"
   id="glyph104"><path
     d="M63.9926 0l0 716.002 88.0164 0 0 -716.002 -88.0164 0z"
     id="path102" /></glyph>
   <glyph
   unicode="i"
   horiz-adv-x="222"
   id="glyph108"><path
     d="M66.0157 616l0 100 88 0 0 -100 -88 0zm0 -616l0 518.992 88 0 0 -518.992 -88 0z"
     id="path106" /></glyph>
  </font>
</defs>
</svg>
